Autor Tema: Sniper: Fuego oculto (2016) [BDRip m1080p/Dual Castellano-ingles] [Mult/MG]  (Leído 40 veces)

Agosto 04, 2016, 16:35:42 pm
  • Extremadamente vago
  • *****
  • Panel de agradecimientos
  • -Tu has dado: 0
  • -Tu has recibido: 56
  • Mensajes: 5796
    • Ver Perfil


Sinopsis:
Francotiradores de élite Brandon Beckett (Chad Michael Collins) y  Richard Miller (Billy Zane) encargada de proteger un gasoducto de los  terroristas que buscan hacer una declaración. Cuando las batallas con el  enemigo principal de francotiradores siendo asesinados por un tirador  fantasma que conoce su ubicación exacta, las tensiones se reducen a  medida que se sospecha que existe una brecha de seguridad. ¿Hay alguien  que trabaja con el enemigo en el interior? Es la misión de un frente  para otra actividad? ¿El Coronel tira de los hilos?

Ficha Técnica:
Título original: Sniper: Ghost Shooter
Título Latino:
Título de España: Sniper: Fuego oculto
Otros Titulos:
Año: 2016
País: Estados Unidos Estados Unidos
Director: Don Michael Paul
Reparto: Dennis Haysbert, Stephanie Vogt, Chad Michael Collins, Nick Gomez, Presciliana Esparolini, Nigel Barber, Enoch Frost
Productora: Destination Films / UFO International Productions
Género: Acción | Terrorismo

Trailer:
Código: [Seleccionar]
http://www.youtube.com/watch?v=Z_frVLuDr-A
Datos Técnicos:
Video: WEB-DL m1080p H264 1916x1076
Audio 1: Castellano AC3 2.0 384Kbps
Audio 2: Ingles AC3 5.1 384Kbps
Subtitulos: Español, ingles y forzados en español e ingles
Peso: 3.98 GB

Código: [Seleccionar]
General
Unique ID                                : 233906543307335871040106348601636181328 (0xAFF8C2F7D94361B5B6912A999FE25550)
Complete name                            : Sniper.Fuego.oculto.m1080p.Castellano.ingles.mkv
Format                                   : Matroska
Format version                           : Version 4 / Version 2
File size                                : 3.98 GiB
Duration                                 : 1 h 39 min
Overall bit rate                         : 5 752 kb/s
Encoded date                             : UTC 2016-08-04 13:28:09
Writing application                      : mkvmerge v8.5.1 ('Where you lead I will follow') 32bit
Writing library                          : libebml v1.3.3 + libmatroska v1.4.4

Video
ID                                       : 1
Format                                   : AVC
Format/Info                              : Advanced Video Codec
Format profile                           : [email protected]
Format settings, CABAC                   : Yes
Format settings, ReFrames                : 4 frames
Codec ID                                 : V_MPEG4/ISO/AVC
Duration                                 : 1 h 39 min
Bit rate                                 : 4 982 kb/s
Width                                    : 1 916 pixels
Height                                   : 1 076 pixels
Display aspect ratio                     : 16:9
Frame rate mode                          : Constant
Frame rate                               : 23.976 (23976/1000) FPS
Color space                              : YUV
Chroma subsampling                       : 4:2:0
Bit depth                                : 8 bits
Scan type                                : Progressive
Bits/(Pixel*Frame)                       : 0.101
Stream size                              : 3.45 GiB (87%)
Language                                 : English
Default                                  : Yes
Forced                                   : No
Color range                              : Limited
Color primaries                          : BT.709
Transfer characteristics                 : BT.709
Matrix coefficients                      : BT.709

Audio #1
ID                                       : 2
Format                                   : AC-3
Format/Info                              : Audio Coding 3
Mode extension                           : CM (complete main)
Format settings, Endianness              : Big
Codec ID                                 : A_AC3
Duration                                 : 1 h 39 min
Bit rate mode                            : Constant
Bit rate                                 : 384 kb/s
Channel(s)                               : 2 channels
Channel positions                        : Front: L R
Sampling rate                            : 48.0 kHz
Frame rate                               : 31.250 FPS (1536 spf)
Compression mode                         : Lossy
Stream size                              : 272 MiB (7%)
Language                                 : Spanish
Default                                  : Yes
Forced                                   : Yes

Audio #2
ID                                       : 3
Format                                   : AC-3
Format/Info                              : Audio Coding 3
Mode extension                           : CM (complete main)
Format settings, Endianness              : Big
Codec ID                                 : A_AC3
Duration                                 : 1 h 39 min
Bit rate mode                            : Constant
Bit rate                                 : 384 kb/s
Channel(s)                               : 6 channels
Channel positions                        : Front: L C R, Side: L R, LFE
Sampling rate                            : 48.0 kHz
Frame rate                               : 31.250 FPS (1536 spf)
Compression mode                         : Lossy
Stream size                              : 272 MiB (7%)
Language                                 : English
Default                                  : No
Forced                                   : No

Text #1
ID                                       : 4
Format                                   : UTF-8
Codec ID                                 : S_TEXT/UTF8
Codec ID/Info                            : UTF-8 Plain Text
Duration                                 : 1 h 30 min
Bit rate                                 : 3 b/s
Count of elements                        : 59
Stream size                              : 2.23 KiB (0%)
Language                                 : Spanish
Default                                  : Yes
Forced                                   : No

Text #2
ID                                       : 5
Format                                   : UTF-8
Codec ID                                 : S_TEXT/UTF8
Codec ID/Info                            : UTF-8 Plain Text
Duration                                 : 1 h 35 min
Bit rate                                 : 47 b/s
Count of elements                        : 887
Stream size                              : 33.4 KiB (0%)
Language                                 : Spanish
Default                                  : No
Forced                                   : No

Text #3
ID                                       : 6
Format                                   : UTF-8
Codec ID                                 : S_TEXT/UTF8
Codec ID/Info                            : UTF-8 Plain Text
Duration                                 : 1 h 25 min
Bit rate                                 : 2 b/s
Count of elements                        : 45
Stream size                              : 1.44 KiB (0%)
Language                                 : English
Default                                  : No
Forced                                   : No

Text #4
ID                                       : 7
Format                                   : UTF-8
Codec ID                                 : S_TEXT/UTF8
Codec ID/Info                            : UTF-8 Plain Text
Duration                                 : 1 h 34 min
Bit rate                                 : 43 b/s
Count of elements                        : 861
Stream size                              : 30.2 KiB (0%)
Language                                 : English
Default                                  : No
Forced                                   : No

Text #5
ID                                       : 8
Format                                   : UTF-8
Codec ID                                 : S_TEXT/UTF8
Codec ID/Info                            : UTF-8 Plain Text
Duration                                 : 24 s 0 ms
Bit rate                                 : 12 b/s
Count of elements                        : 1
Stream size                              : 38.0 Bytes (0%)
Default                                  : No
Forced                                   : Yes

Menu
00:00:00.000                             : en:1
00:11:49.584                             : en:2
00:16:06.257                             : en:3
00:21:24.533                             : en:4
00:26:35.468                             : en:5
00:34:49.086                             : en:6
00:41:14.262                             : en:7
00:45:08.663                             : en:8
00:49:00.061                             : en:9
00:53:00.926                             : en:10
01:02:11.434                             : en:11
01:10:38.232                             : en:12
01:14:05.981                             : en:13
01:20:28.196                             : en:14
01:25:45.429                             : en:15
01:34:35.500                             : en:16


Capturas
:



----------------------------------------------------------------------------------------------------
Si    se cae          algún  link, o tienes problemas con el post, mándame   un  MP, si    sólo    lo    comentas  corres el riesgo de que nunca me   dé  cuenta ----------------------------------------------------------------------------------------------------
 
Descargar Gratis
:

Código: [Seleccionar]
Uploaded |  MEGA | Mas +

http://tomas01.com/index.php?v=6543